90分钟足球网论坛 » 高清技术讨论区 【探析】关于720P足球视频的质量甄别与相关参数的简明释义
百度分享
  • 43566查看
  • 72回复

【探析】关于720P足球视频的质量甄别与相关参数的简明释义

【探析】关于720P足球视频的质量甄别与相关参数的简明释义

【关于参数】

    随着高清时代的来临,越来越多的朋友喜欢性价比较高的720P的高清视频,对于大家搜集下载的720P足球视频,应该从哪些视频参数来甄别该视频的质量呢,专业术语就不做太多赘述了,以下就简要地做个解释(以下标准仅限于720P的HDTV视频,标清视频或蓝光视频压制参数不做参照)。

    任何一个对比都是有前提的,请注意,以下介绍的是在同一个1080I的hdtv版本压制出来的各类720P版本之间的比较。

1.首先去下载一个小软件mediainfo,以后不要打开视频,只要鼠标右键视频就可以看见这个mediainfo,左键点击它,就可以看见视频信息了。

2.视频属性举例说明,以下是一个通过央视高清频道录制下来的1080I版压制而成的720P视频文件,用mediainfo查看如下
Format                                   : Matroska
Format version                           : Version 2
File size                                : 2.97 GiB
Duration                                 : 1h 35mn
Overall bit rate                         : 4 451 Kbps
Encoded date                             : UTC 2012-08-05 17:52:21
Writing application                      : mkvmerge v5.7.0 ('The Whirlwind') built on Jul  8 2012 20:08:51
Writing library                          : libebml v1.2.3 + libmatroska v1.3.0
Video
ID                                       : 1
Format                                   : AVC
Format/Info                              : Advanced Video Codec
Format profile                           : [email protected]1
Format settings, CABAC                   : Yes
Format settings, ReFrames                : 7 frames
Muxing mode                              : Header stripping
Codec ID                                 : V_MPEG4/ISO/AVC
Duration                                 : 1h 35mn
Bit rate                                 : 4 066 Kbps
Width                                    : 1 280 pixels
Height                                   : 720 pixels
Display aspect ratio                     : 16:9
Frame rate                               : 25.000 fps
Color space                              : YUV
Chroma subsampling                       : 4:2:0
Bit depth                                : 8 bits
Scan type                                : Progressive
Bits/(Pixel*Frame)                       : 0.176
Stream size                              : 2.65 GiB (89%)
Writing library                          : x264 core 125 r2200 999b753
Encoding settings                        : cabac=1 / ref=7 / deblock=1:-3:-3 / analyse=0x3:0x113 / me=umh / subme=8 / psy=1 / psy_rd=1.00:0.00 / mixed_ref=1 / me_range=24 /
chroma_me=1 / trellis=2 / 8x8dct=1 / cqm=0 / deadzone=21,11 / fast_pskip=0 / chroma_qp_offset=-2 / threads=12 / lookahead_threads=2 / sliced_threads=0 / nr=0 / decimate=0 /
interlaced=0 / bluray_compat=0 / constrained_intra=0 / bframes=6 / b_pyramid=2 / b_adapt=2 / b_bias=0 / direct=3 / weightb=1 / open_gop=0 / weightp=2 / keyint=250 /
keyint_min=2 / scenecut=40 / intra_refresh=0 / rc_lookahead=60 / rc=2pass / mbtree=1 / bitrate=4066 / ratetol=1.0 / qcomp=0.60 / qpmin=0 / qpmax=69 / qpstep=4 / cplxblur=20.0
/ qblur=0.5 / vbv_maxrate=30000 / vbv_bufsize=25000 / nal_hrd=none / ip_ratio=1.40 / aq=1:0.70
Language                                 : English
Default                                  : Yes
Forced                                   : No
Audio
ID                                       : 2
Format                                   : MPEG Audio
Format version                           : Version 1
Format profile                           : Layer 2
Muxing mode                              : Header stripping
Codec ID                                 : A_MPEG/L2
Codec ID/Hint                            : MP2
Duration                                 : 1h 35mn
Bit rate mode                            : Constant
Bit rate                                 : 384 Kbps
Channel(s)                               : 2 channels
Sampling rate                            : 48.0 KHz
Compression mode                         : Lossy
Stream size                              : 262 MiB (9%)
Default                                  : Yes
Forced                                   : No

3.先对几个影响视频质量的主要参数(已标红)做个简明解释。

(1)Format : AVC
  这个不用说了,AVC就是H264,720P高清编码肯定要用它。
   H.264编码有四种画质级别
  BP-Baseline Profile:基本画质。支持I/P 帧,只支持无交错(Progressive)和CAVLC;
  EP-Extended Profile:进阶画质。支持I/P/B/SP/SI 帧,只支持无交错(Progressive)和CAVLC;
  MP-Main Profile:主流画质。提供I/P/B 帧,支持无交错(Progressive)和交错(Interlaced),也支持CAVLC 和CABAC 的支持;
  HP-High Profile:高级画质。在main Profile 的基础上增加了8×8内部预测、自定义量化、无损视频编码和更多的YUV格式;

(2)Format profile : [email protected]
    AVC级别。AVC也有许多的级别(level),蓝光只支援level 4.1,所以4.1是最通用也最成熟的硬解高清的方案.
    如果你看到这里是L3.1或L3.0,那压制效果肯定不如L4.1。如果你看到的是5.1.它是AVC最高的level,最高支持4096 × 2304像素.但是极少见,不通用。

(3)Format settings, CABAC  : Yes
   必须是yes。也就是CABAC必须显示“开”。CABAC是是视讯压缩标准H.264采用的算法。在AVC压制过程中必须开启。相比于另一种算法CABLC,CABAC具有更高效且文件更小的特点, 但对解码时的要求也更高。如果你看到的CABAC是no,或者是关的话,这种720P视频肯定是不合格的。基本可以断定是菜鸟用格式工厂,mediacoder等低端压制软件压制而成。对于压制720P视频的软件,目前只有用汇编语言命令行或megui压制最佳。格式工厂,mediacoder等其他软件压制出来的质量是很不尽如人意的。 尤其是压制动态码率较高的足球视频,很容易出现跳帧卡帧等现象,你可以观察视频中足球运行的轨迹,比如射门的球的轨迹,传球的球的轨迹如果你看了会有点头晕或看不清的现象产生,那就是劣质软件压制出来的效果。


(4)Format settings, ReFrames : 7 frames
   控制解码图片缓冲(DPB:Decoded Picture Buffer)的大小。范围是从0到16。总之,此值是每个P帧可以使用先前多少帧作为参照帧的数目(B帧可以使用的数目要少一或两个,取决于它们是否作为参照帧)。可以被参照的最小ref数是1。
   还要注意的是,H.264规格限制了每个level的DPB大小。如果遵守Level 4.1规格,720p和1080p视讯的最大ref数分别是9和4。
   总之,对于720P的HDTV视频,frames值越大,质量就越好。

(5)Bit rate: 4 066 Kbps
  比特率。比特率表示经过编码(压缩)后的音、视频数据每秒钟需要用多少个比特来表示,而比特就是二进制里面最小的单位,要么是0,要么是1。比特率与音、视频压缩的关系,简单的说就是比特率越高,音、视频的质量就越好,但编码后的文件就越大;如果比特率越少则情况刚好相反。
  正常情况下,一场90分钟的比赛,较好的1080I源视频一般在10G以上,低于9G的1080I版本一般情况下都不大好。少于7.5G的1080I版本可以直接扔掉,质量实在不敢恭维。在压制的720P视频的时候,尽量选取录制码率在15M或以上的1080I版本,因为源视频不清晰,再怎么压制的视频都是不清晰的。压制的时候,720P码率设置个人认为至少在3500以上,如果不是特别经典的比赛,视频码率控制在4000码左右性价比较高,压制出来的720P视频大约在3.1G左右。如果是较为经典的值得收藏的比赛,在1080I源版本足够好的基础上,720P的码率最好设置在5000以上。

(6)Frame rate: 25.000 fps
    帧频。又叫做帧率。在电影、电视中以及计算机视频显示器中,帧频是指每秒钟放映或显示的帧或图像的数量。也就是每秒显示的图片数。影响画面流畅度,与画面流畅度成正比:帧率越大,画面越流畅;帧率越小,画面越有跳动感。国内的电视都是25fps的,欧美的有的是29.970的。一般情况下,25fps压制速度快,大部分发布较快的高清视频会采用25fps。
    帧频不决定清晰度,但决定流畅度。足球视频特别对流畅度要求较高。如果你想体验高帧带来的流畅快感,建议你显卡的配置要高一点。所以,如果一场足球比赛较为经典,同时你也想收藏的话,尽量选择50fps版本。因此国内外足球高清业界在压制的时候,帧频都是设置为50fps或59.94fps(即倍帧压制)。

(7)关于音频
   音频的种类有很多,有AC3,AAC,MP3等许多种。许多童鞋有一种误解,认为带AC3的720P视频就一定比AAC或MP3好。通俗的说:首先要看源视频是什么音频,也就是1080I的视频是什么音频,压制720P视频的时候,是把1080I的视频音轨分离出来,封装进720P视频中,这样的效果是才是最佳效果。如果1080I视频是MP3,你在压制720P视频的时候把它压成AC3,实际上效果已经打折了。把1080I的MP3音频封装进720P才是正解。
   更有甚者,明明1080I视频是两声道的,他在压制过程中把视频压制成6声道,这种哗众取宠的伪声道的做法显然是很可笑的。



【关于播放】

现在的播放器种类繁多,在播放高清视频的时候,常用的播放器中,个人推荐使用potplayer。此播放器无论播放720P还是1080I,都非常流畅,而且音效还原最好。kmplayer和百度影音效果也还可以。而不少人使用的QQ影音则在播放高清视频的时候经常表现不佳,尤其在播放许多1080I视频会很卡而且时常花屏。至于有些童鞋比较推崇的什么完美解码之类的播放器本人也不推荐使用。


【关于储存】
目前性价比最高的肯定是3T的硬盘。推荐7200转的。如果去刻盘,则相当费时费力,本人不推荐。


【关于720P和1080i的清晰度】

问题有点无聊,关于对这个问题,分以下几点回答

1.720P和1080I谁更清晰?

  比较的时候一定要注意前提。

  如果是同源的1080I和720P{720P视频是这个1080I压制出来的),肯定是1080I清晰。Rip(重编码/重压)在画面上所能做到的就是无限接近原版画质,而不可能超越它.

  如果是不同源的1080I和720P,则就不好比较了。比如一个CNOPT版的6.8G的足球全场和一个720P的3.8G的SKY版的足球全场,你会选择哪个。关于低码的1080I和高码的720P,我更倾向于高码的720P,很多情况下,不同版本的高码720P清晰度远胜低码的1080I,而且电脑和50寸左右的屏幕看720p足够了。

2.为什么有的720P版本看过去比有的1080I版本更清晰?

   720p版本视频的清晰度,很大程度上取决于录制下的1080I版本的清晰度。如果这个1080I版是带AVC码流,同时又有足够码率保证,辅以正确的压制方法,平衡好质量与体积的参数,压制出来的720P版本肯定比不带AVC码流的1080I版压制出来的720P清晰,在一定条件下,观看效果也好于不带AVC的1080I版本。

   1080I版本的清晰度取决于你接收的信号和录制软件的效果,单纯在录制软件上加大码率,是不会在清晰度上产生质的改变的。

3.足球视频中哪个版本的1080I最清晰?

   如果从近年来1080I版本流出来的平均水准来看,英国版的SKY质量普遍较高,基本还是5.1声道。压制起来注意点也比较多,否则容易压废掉。意大利版的sky也还不错,音频上以2声道居多,压制起来也容易。德国版的SKY大部分质量不敢恭维,就不多说了。俄罗斯版中,NTV和CNOPT质量参差不齐,有时候效果不错,有时候难尽人意。其他版本还有一些,不常见,也就不多说了。

4.720P的ts和720P的mkv哪个更清晰?
   这个源于一种认识上的错误,对于高清的录制,可以录制成1080I的格式,也可以录制成720I的格式(看清楚,是720I,不是720P),显示的基本都是ts版本。要成为720P的版本,自然是把1080I压制成720P方式最佳,这种方法自然比所谓的720的ts版本要清晰。大部分市面上见的720的ts版本毛边现象还比较严重,不推荐下载。比如FOX电视台的很多足球视频,就是这种720的ts版本。还有一种,就是电视信号源本身就是720P的,这才是真正的720P的ts版本。但是这种信号源的视频很少,基本可以忽略不计。

   最近随着录制软件的升级,为了追求发布速度,大量国内外网站都发布直录版的720P视频,这种直录版的效果自然比压制版的来的差一些。

5.4.8G的720P版本一定比3.3G的720P版本清晰吗?

  如果是同一个1080I源且是同一个人,用同样的压制方法压制,显然4.8G的码率高,当然4.8G的版清晰。
  如果不是同一个1080I源,从容量上判断两者之间的清晰度显然是可笑的。即使是同一个1080I的源,不同的人压制出来的效果也不会相同。
  因此,判断一定要有前提,单纯从视频的容量来判别清晰度的做法是幼稚的。

6.小于7G的1080I版本有收藏价值吗?
   一场90分钟的足球比赛的1080I版本如果小于8G,那基本是8500码以下的版本,正常的1080I版本至少要在13000码率以上。你说的那种版本,骗骗菜鸟自然可以。说到收藏,呵呵,可能是你太少看高清了。
1

评分人数

  • swufeljs

高手!

原来我下载了不少垃圾视频。

TOP

TOP

来学习了  谢谢分享!!!

TOP

顶!……………………………………

TOP

本帖最后由 我的心啊 于 2012-10-19 11:34 编辑

回复 1# jkl88
    师傅,我全力求“原版足球比赛”,原版:未压缩的1080I或者720P,蓝光更好,不要H264压缩过的MKV,求师傅帮忙了!我愿意为你做任何事情!可以单独短信联系我也行!

TOP

TOP

回复 6# 我的心啊


    去论坛里搜索一下吧。

TOP

TOP

50000 字节以内
不支持自定义 Discuz! 代码

TOP

关闭